David Bowie Is Happening Now – A Live Nationwide Cinema Event – 2013-8-13 (HD Video)

David Bowie Is Happening Now - A Live Nationwide Cinema Event - 2013-8-13 (HD Video)

David Bowie Is Happening Now – A Live Nationwide Cinema Event – 2013-8-13 (HD Video)
The Victoria and Albert Museum Presents
A Done + Dusted Film

The Grand Finale to…The Best Selling Exhibition

A Celebration of A Cultural Icon

Here is the video which was already upped by other in September 2013 in its HD original. Other asked me to upload it as his uploading speed is quite slow.
Let’s see how my uploading speed is working but it will certainly be a delayed Christmas present.
I have done nothing with this file as it is already very large. So there is no menue

folder“2140““folder1”

General
ID : 1 (0x1)
Complete name : D:\Opera\DAVID BOWIE IS HAPPENING NOW at VA 08.13.2013 HDTV Mpeg2 AC3 M2TS MME\David Bowie is happening now.MME.m2ts
Format : BDAV
Format/Info : Blu-ray Video
File size : 14.9 GiB
Duration : 1h 39mn
Overall bit rate mode : Variable
Overall bit rate : 21.5 Mbps
Maximum Overall bit rate : 35.5 Mbps

Video
ID : 4113 (0x1011)
Menu ID : 1 (0x1)
Format : AVC
Format/Info : Advanced Video Codec
Format profile : [email protected]
Format settings, CABAC : Yes
Format settings, ReFrames : 4 frames
Codec ID : 27
Duration : 1h 39mn
Bit rate mode : Variable
Bit rate : 20.2 Mbps
Maximum bit rate : 40.0 Mbps
Width : 1 920 pixels
Height : 1 080 pixels
Display aspect ratio : 16:9
Frame rate : 25.000 fps
Color space : YUV
Chroma subsampling : 4:2:0
Bit depth : 8 bits
Scan type : Interlaced
Scan order : Top Field First
Bits/(Pixel*Frame) : 0.390
Stream size : 14.0 GiB (94%)
Color primaries : BT.709
Transfer characteristics : BT.709
Matrix coefficients : BT.709

Audio
ID : 4352 (0x1100)
Menu ID : 1 (0x1)
Format : AC-3
Format/Info : Audio Coding 3
Mode extension : CM (complete main)
Format settings, Endianness : Big
Codec ID : 129
Duration : 1h 39mn
Bit rate mode : Constant
Bit rate : 448 Kbps
Channel(s) : 6 channels
Channel positions : Front: L C R, Side: L R, LFE
Sampling rate : 48.0 KHz
Bit depth : 16 bits
Compression mode : Lossy
Delay relative to video : 14ms
Stream size : 318 MiB (2%)
Language : English

(Visited 35 times, 1 visits today)

1 thought on “David Bowie Is Happening Now – A Live Nationwide Cinema Event – 2013-8-13 (HD Video)”

  1. Hi there,

    I have been looking for a copy of this particular documentary since 2013! Would it be possible to upload it on Mega or some sort of private direct download link to share with my e-mail?

    I would be ever so grateful for this content! Please let me know when you can.

    Kind Regards,

    Haris

Leave a comment

david-bowie-cracked-actor-documentary-1974-dvd-4f3d2-213×300 David Bowie: The Story of Ziggy Stardust – BBC Four 2012-12-24